<?xml version="1.0" standalone="no"?>
<!--<!DOCTYPE svg PUBLIC "-//W3C//DTD SVG 1.1//EN" "http://www.w3.org/Graphics/SVG/1.1/DTD/svg11.dtd" >-->
<svg xmlns="http://www.w3.org/2000/svg" xmlns:xlink="http://www.w3.org/1999/xlink" version="1.1">
<metadata></metadata>
<defs>
<font id="ds-digitalbold_italic" horiz-adv-x="1042" >
<font-face units-per-em="2048" ascent="1638" descent="-410" />
<missing-glyph horiz-adv-x="484" />
<glyph horiz-adv-x="0" />
<glyph unicode="&#xd;" horiz-adv-x="484" />
<glyph unicode=" "  horiz-adv-x="484" />
<glyph unicode="&#x09;" horiz-adv-x="484" />
<glyph unicode="&#xa0;" horiz-adv-x="484" />
<glyph unicode="!" horiz-adv-x="584" d="M173 -261l15 173h194l-15 -173h-194zM212 194l26 299l133 121l65 -72l-47 -542zM266 810l26 298l211 195l-47 -542l-80 -74z" />
<glyph unicode="&#x22;" horiz-adv-x="633" d="M179 1044l22 259h194l-23 -259l-106 -98zM441 1044l23 259h195l-22 -259l-106 -98z" />
<glyph unicode="#" horiz-adv-x="1238" d="M145 426l106 97h105l87 -97l-106 -96h-104zM177 789l106 97h104l88 -97l-104 -96h-105zM357 145l14 147l104 97l91 -97l-13 -147l-108 -97zM393 559l9 98l104 97l92 -97l-10 -98l-106 -97zM424 923l15 164l107 99l89 -99l-15 -164l-106 -96zM516 426l106 97h87l88 -97 l-106 -96h-88zM547 789l106 97h88l88 -97l-105 -96h-87zM711 145l13 147l106 97l90 -97l-13 -147l-106 -97zM747 559l9 98l106 97l89 -97l-9 -98l-104 -97zM778 923l15 164l108 99l88 -99l-15 -164l-105 -96zM869 426l107 97h104l87 -97l-106 -96h-104zM901 789l106 97h105 l87 -97l-104 -96h-105z" />
<glyph unicode="$" d="M117 97l105 97h499l89 -97l-106 -97h-499zM175 761l26 311l106 97l88 -97l-23 -262l-132 -123zM276 652l104 96h413l90 -96l-107 -97h-413zM348 1206l104 97h498l89 -97l-106 -98h-497zM385 -201l13 158h194l-13 -158l-106 -97zM519 1346l15 156l105 97l89 -97l-15 -156 h-194zM760 231l22 262l132 121l65 -72l-26 -311l-106 -97z" />
<glyph unicode="%" horiz-adv-x="1431" d="M188 920l89 -91l105 91l15 156l-90 99l-104 -99zM311 788l106 96h102l90 -96l-108 -99h-103zM313 141l318 481l171 46l17 -100l-460 -691zM348 1210l106 99h103l89 -99l-108 -97h-102zM559 920l14 156l105 99l89 -99l-15 -156l-104 -91zM778 242l90 -91l106 91l13 149 l-90 97l-106 -97zM814 896l292 437l270 71l-430 -648l-103 -24zM901 110l108 97h101l87 -97l-104 -97h-101zM938 523l106 99h101l89 -99l-106 -97h-100zM1149 242l13 149l106 97l87 -97l-13 -149l-104 -91z" />
<glyph unicode="&#x26;" horiz-adv-x="1113" d="M128 231l27 311l80 72l109 -121l-22 -262l-106 -97zM175 761l26 311l106 97l88 -97l-23 -262l-132 -123zM251 97l105 97h365l89 -97l-106 -97h-365zM276 652l104 96h413l90 -96l-107 -97h-413zM348 1206l104 97h365l90 -97l-106 -98h-365zM760 231l22 262l132 121l65 -72 l-26 -311l-106 -97zM810 810l7 78l105 97l89 -97l-11 -127l-80 -74zM955 652l104 96l90 -96l-106 -97z" />
<glyph unicode="'" horiz-adv-x="368" d="M179 1044l22 259h194l-23 -259l-106 -98z" />
<glyph unicode="(" horiz-adv-x="642" d="M108 231l87 -97l107 97l22 262l-110 121l-80 -72zM155 761l26 311l106 97l87 -97l-22 -262l-132 -123zM229 97l106 97h86l179 -194h-282zM326 1206l106 97h281l-212 -195h-86z" />
<glyph unicode=")" horiz-adv-x="642" d="M43 0l212 194h88l89 -97l-106 -97h-283zM156 1303h283l90 -97l-106 -98h-88zM382 231l22 262l134 121l65 -72l-26 -311l-106 -97zM432 810l22 262l108 97l88 -97l-26 -311l-80 -74z" />
<glyph unicode="*" horiz-adv-x="996" d="M140 592l46 132l145 77h194l-123 -175l-134 -69zM181 1065l136 35l121 -70l91 -174h-194l-130 77zM439 451l13 149l114 180l84 -173l-15 -156l-106 -97zM493 1054l13 152l105 97l91 -97l-13 -152l-116 -177zM613 810l89 -175l121 -78l138 35l-26 132l-127 86h-195z M618 862l119 173l134 65l131 -35l-49 -132l-139 -71h-196z" />
<glyph unicode="+" horiz-adv-x="962" d="M145 652l104 96h164l90 -96l-106 -97h-164zM415 354l13 164l108 96l88 -96l-13 -164l-106 -97zM452 786l15 164l106 96l90 -96l-15 -164l-106 -99zM575 652l105 96h163l90 -96l-106 -97h-164z" />
<glyph unicode="," horiz-adv-x="368" d="M76 -119l25 259h193l-24 -259l-104 -97z" />
<glyph unicode="-" horiz-adv-x="962" d="M145 652l104 96h594l90 -96l-106 -97h-594z" />
<glyph unicode="." horiz-adv-x="368" d="M88 0l16 194h194l-17 -194h-193z" />
<glyph unicode="/" horiz-adv-x="1003" d="M61 188l283 419l172 43l16 -99l-422 -629zM525 881l283 422l274 69l-423 -631l-100 -26z" />
<glyph unicode="0" d="M112 37l43 505l80 72l109 -121l-22 -262zM145 0l211 194h365l176 -194h-752zM175 761l43 505l177 -194l-23 -262l-132 -123zM259 1303h752l-210 -195h-365zM760 231l22 262l132 121l65 -72l-43 -505zM810 810l22 262l211 194l-43 -505l-80 -74z" />
<glyph unicode="1" horiz-adv-x="584" d="M216 231l22 262l133 121l65 -72l-43 -505zM266 810l23 262l210 194l-43 -505l-80 -74z" />
<glyph unicode="2" d="M112 37l43 505l80 72l109 -121l-22 -262zM145 0l211 194h365l176 -194h-752zM259 1303h752l-210 -195h-365zM276 652l104 96h413l90 -96l-107 -97h-413zM810 810l22 262l211 194l-43 -505l-80 -74z" />
<glyph unicode="3" d="M145 0l211 194h365l176 -194h-752zM259 1303h752l-210 -195h-365zM276 652l104 96h413l90 -96l-107 -97h-413zM760 231l22 262l132 121l65 -72l-43 -505zM810 810l22 262l211 194l-43 -505l-80 -74z" />
<glyph unicode="4" d="M175 761l43 505l177 -194l-23 -262l-132 -123zM276 652l104 96h413l90 -96l-107 -97h-413zM760 231l22 262l132 121l65 -72l-43 -505zM810 810l22 262l211 194l-43 -505l-80 -74z" />
<glyph unicode="5" d="M145 0l211 194h365l176 -194h-752zM175 761l43 505l177 -194l-23 -262l-132 -123zM259 1303h752l-210 -195h-365zM276 652l104 96h413l90 -96l-107 -97h-413zM760 231l22 262l132 121l65 -72l-43 -505z" />
<glyph unicode="6" d="M112 37l43 505l80 72l109 -121l-22 -262zM145 0l211 194h365l176 -194h-752zM175 761l43 505l177 -194l-23 -262l-132 -123zM259 1303h752l-210 -195h-365zM276 652l104 96h413l90 -96l-107 -97h-413zM760 231l22 262l132 121l65 -72l-43 -505z" />
<glyph unicode="7" d="M259 1303h752l-210 -195h-365zM760 231l22 262l132 121l65 -72l-43 -505zM810 810l22 262l211 194l-43 -505l-80 -74z" />
<glyph unicode="8" d="M112 37l43 505l80 72l109 -121l-22 -262zM145 0l211 194h365l176 -194h-752zM175 761l43 505l177 -194l-23 -262l-132 -123zM259 1303h752l-210 -195h-365zM276 652l104 96h413l90 -96l-107 -97h-413zM760 231l22 262l132 121l65 -72l-43 -505zM810 810l22 262l211 194 l-43 -505l-80 -74z" />
<glyph unicode="9" d="M145 0l211 194h365l176 -194h-752zM175 761l43 505l177 -194l-23 -262l-132 -123zM259 1303h752l-210 -195h-365zM276 652l104 96h413l90 -96l-107 -97h-413zM760 231l22 262l132 121l65 -72l-43 -505zM810 810l22 262l211 194l-43 -505l-80 -74z" />
<glyph unicode=":" horiz-adv-x="454" d="M130 0l17 194h196l-17 -194h-196zM209 892l16 193h196l-17 -193h-195z" />
<glyph unicode=";" horiz-adv-x="454" d="M119 -119l24 259h196l-24 -259l-106 -97zM209 892l16 193h196l-17 -193h-195z" />
<glyph unicode="&#x3c;" horiz-adv-x="729" d="M141 624h274l259 -272l-13 -136h-138zM147 676l453 411h137l-11 -137l-305 -274h-274z" />
<glyph unicode="=" horiz-adv-x="962" d="M130 486l105 97h594l89 -97l-106 -99h-594zM158 817l106 99h594l88 -99l-104 -96h-594z" />
<glyph unicode="&#x3e;" horiz-adv-x="729" d="M106 216l13 136l302 272h275l-452 -408h-138zM171 950l11 137h138l382 -411h-276z" />
<glyph unicode="?" d="M84 -266h193l19 193h-194zM108 0l47 542l80 72l109 -121l-26 -299zM222 1303h595l90 -97l-106 -98h-403zM276 652l104 96h413l90 -96l-107 -97h-413zM810 810l22 262l106 97l88 -97l-26 -311l-80 -74z" />
<glyph unicode="@" horiz-adv-x="1260" d="M128 231l27 311l80 72l109 -121l-22 -262l-106 -97zM175 761l26 311l106 97l88 -97l-23 -262l-132 -123zM251 97l105 97h748l91 -97l-108 -97h-748zM348 1206l104 97h775l-210 -195h-581zM458 542l19 212l82 73l109 -121l-15 -164l-104 -97zM583 408l106 98h275l177 -195 h-469zM600 864l104 97h324l89 -97l-106 -97h-324zM1002 542l15 164l134 121l65 -73l-36 -406zM1044 1022l4 50l212 194l-24 -292l-80 -75z" />
<glyph unicode="A" d="M108 0l47 542l80 72l109 -121l-26 -299zM175 761l43 505l177 -194l-23 -262l-132 -123zM259 1303h752l-210 -195h-365zM276 652l104 96h413l90 -96l-107 -97h-413zM756 194l26 299l132 121l65 -72l-46 -542zM810 810l22 262l211 194l-43 -505l-80 -74z" />
<glyph unicode="B" d="M112 37l43 505l80 72l109 -121l-22 -262zM145 0l211 194h365l89 -97l-106 -97h-559zM175 761l43 505l177 -194l-23 -262l-132 -123zM259 1303h558l90 -97l-106 -98h-365zM276 652l104 96h413l90 -96l-107 -97h-413zM760 231l22 262l132 121l65 -72l-26 -311l-106 -97z M810 810l22 262l106 97l88 -97l-26 -311l-80 -74z" />
<glyph unicode="C" d="M128 231l88 -97l106 97l22 262l-109 121l-80 -72zM175 761l26 311l106 97l88 -97l-23 -262l-132 -123zM251 97l105 97h400l177 -194h-594zM348 1206l104 97h594l-210 -195h-400z" />
<glyph unicode="D" d="M112 37l43 505l80 72l109 -121l-22 -262zM145 0l211 194h365l89 -97l-106 -97h-559zM175 761l43 505l177 -194l-23 -262l-132 -123zM259 1303h558l90 -97l-106 -98h-365zM760 231l22 262l132 121l65 -72l-26 -311l-106 -97zM810 810l22 262l106 97l88 -97l-26 -311 l-80 -74z" />
<glyph unicode="E" d="M112 37l43 505l80 72l109 -121l-22 -262zM145 0l211 194h400l177 -194h-788zM175 761l43 505l177 -194l-23 -262l-132 -123zM259 1303h787l-210 -195h-400zM276 652l104 96h413l90 -96l-107 -97h-413z" />
<glyph unicode="F" d="M112 37l43 505l80 72l109 -121l-22 -262zM175 761l43 505l177 -194l-23 -262l-132 -123zM259 1303h787l-210 -195h-400zM276 652l104 96h413l90 -96l-107 -97h-413z" />
<glyph unicode="G" d="M128 231l30 339l78 72l110 -121l-24 -290l-106 -97zM177 788l24 284l106 97l88 -97l-21 -236l-130 -121zM251 97l88 -97h365l106 97l-89 97h-365zM348 1206l104 97h594l-210 -195h-400zM471 678l104 98h220l89 -98l-106 -97h-219zM760 231l24 290l132 121l67 -72 l-30 -339l-106 -97z" />
<glyph unicode="H" d="M108 0l47 542l80 72l109 -121l-26 -299zM175 761l47 542l176 -195l-26 -298l-132 -123zM276 652l104 96h413l90 -96l-107 -97h-413zM756 194l26 299l132 121l65 -72l-46 -542zM810 810l26 298l210 195l-46 -542l-80 -74z" />
<glyph unicode="I" horiz-adv-x="584" d="M212 194l26 299l133 121l65 -72l-47 -542zM266 810l26 298l211 195l-47 -542l-80 -74z" />
<glyph unicode="J" d="M128 231l88 -97l106 97l15 175l-110 123l-80 -75zM251 97l105 97h365l89 -97l-106 -97h-365zM760 231l22 262l132 121l65 -72l-26 -311l-106 -97zM810 810l26 298l210 195l-46 -542l-80 -74z" />
<glyph unicode="K" d="M108 0l47 542l80 72l109 -121l-26 -299zM175 761l47 542l176 -195l-26 -298l-132 -123zM276 652l104 96h413l90 -96l-107 -97h-413zM421 801l11 139l397 363h137l-11 -139l-396 -363h-138zM756 194l26 299l132 121l65 -72l-46 -542z" />
<glyph unicode="L" d="M112 37l43 505l80 72l109 -121l-22 -262zM145 0l211 194h400l177 -194h-788zM175 761l47 542l176 -195l-26 -298l-132 -123z" />
<glyph unicode="M" d="M108 0l47 542l80 72l109 -121l-26 -299zM175 761l43 505l177 -194l-23 -262l-132 -123zM259 1303h752l-210 -195h-365zM480 585l34 381l108 97l87 -97l-33 -381l-104 -99zM756 194l26 299l132 121l65 -72l-46 -542zM810 810l22 262l211 194l-43 -505l-80 -74z" />
<glyph unicode="N" d="M108 0l47 542l80 72l109 -121l-26 -299zM175 761l47 542l176 -195l-26 -298l-132 -123zM274 1303h283l229 -266l-13 -140h-138zM756 194l26 299l132 121l65 -72l-46 -542zM810 810l26 298l210 195l-46 -542l-80 -74z" />
<glyph unicode="O" d="M128 231l88 -97l106 97l22 262l-109 121l-80 -72zM175 761l26 311l106 97l88 -97l-23 -262l-132 -123zM251 97l105 97h365l89 -97l-106 -97h-365zM348 1206l104 97h365l90 -97l-106 -98h-365zM760 231l22 262l132 121l65 -72l-26 -311l-106 -97zM810 810l22 262l106 97 l88 -97l-26 -311l-80 -74z" />
<glyph unicode="P" d="M108 0l47 542l80 72l109 -121l-26 -299zM175 761l43 505l177 -194l-23 -262l-132 -123zM259 1303h558l90 -97l-106 -98h-365zM276 652l104 96h413l90 -96l-107 -97h-413zM810 810l22 262l106 97l88 -97l-26 -311l-80 -74z" />
<glyph unicode="Q" d="M128 231l88 -97l106 97l24 288l-110 121l-78 -72zM177 788l24 284l106 97l88 -97l-21 -236l-130 -121zM251 97l105 97h190l89 -97l-106 -97h-190zM348 1206l104 97h365l90 -97l-106 -98h-365zM585 231l11 140h139l211 -231l-13 -140h-138zM775 406l9 113l132 121l67 -72 l-15 -162l-104 -97zM812 836l20 236l106 97l88 -97l-24 -284l-79 -73z" />
<glyph unicode="R" d="M108 0l47 542l80 72l109 -121l-26 -299zM175 761l43 505l177 -194l-23 -262l-132 -123zM259 1303h558l90 -97l-106 -98h-365zM276 652l104 96h413l90 -96l-107 -97h-413zM421 372l13 138h139l341 -370l-13 -140h-140zM810 810l22 262l106 97l88 -97l-26 -311l-80 -74z " />
<glyph unicode="S" d="M117 97l105 97h499l89 -97l-106 -97h-499zM175 761l26 311l106 97l88 -97l-23 -262l-132 -123zM276 652l104 96h413l90 -96l-107 -97h-413zM348 1206l104 97h498l89 -97l-106 -98h-497zM760 231l22 262l132 121l65 -72l-26 -311l-106 -97z" />
<glyph unicode="T" d="M171 1206l105 97h716l92 -97l-108 -98h-717zM432 89l35 404l133 121l65 -72l-39 -453l-105 -96zM495 810l13 149l106 97l88 -97l-17 -198l-80 -74z" />
<glyph unicode="U" d="M128 231l88 -97l106 97l22 262l-109 121l-80 -72zM175 761l47 542l176 -195l-26 -298l-132 -123zM251 97l105 97h365l89 -97l-106 -97h-365zM760 231l22 262l132 121l65 -72l-26 -311l-106 -97zM810 810l26 298l210 195l-46 -542l-80 -74z" />
<glyph unicode="V" horiz-adv-x="999" d="M115 93l41 469l80 73l110 -123l-37 -419l-104 -99zM177 780l45 523l176 -195l-24 -278l-132 -123zM371 93l13 138l376 370l156 34l-28 -171l-380 -371h-137zM812 830l24 278l210 195l-44 -523l-80 -73z" />
<glyph unicode="W" d="M112 37l43 505l80 72l109 -121l-22 -262zM145 0l211 194h365l176 -194h-752zM175 761l47 542l176 -195l-26 -298l-132 -123zM460 335l33 384l107 98l89 -98l-34 -384l-106 -97zM760 231l22 262l132 121l65 -72l-43 -505zM810 810l26 298l210 195l-46 -542l-80 -74z" />
<glyph unicode="X" horiz-adv-x="999" d="M108 0l17 190l316 424h99l-19 -214l-298 -400h-115zM205 1113l17 190h113l229 -402l-18 -214h-99zM594 402l19 212h98l239 -424l-17 -190h-112zM618 687l19 214l298 402h111l-16 -190l-313 -426h-99z" />
<glyph unicode="Y" d="M175 761l65 -74l132 123l26 298l-176 195zM190 97l104 97h427l89 -97l-106 -97h-427zM276 652l104 96h413l90 -96l-107 -97h-413zM760 231l22 262l132 121l65 -72l-26 -311l-106 -97zM810 810l26 298l210 195l-46 -542l-80 -74z" />
<glyph unicode="Z" d="M117 97l105 97h512l176 -194h-705zM222 1303h728l89 -97l-106 -98h-535zM225 238l11 134l202 261l104 9l7 -169l-178 -235h-146zM566 670l2 103l223 290h138l-13 -143l-175 -231z" />
<glyph unicode="[" horiz-adv-x="642" d="M91 37l43 505l80 72l110 -121l-22 -262zM123 0l212 194h86l179 -194h-477zM155 761l42 505l177 -194l-22 -262l-132 -123zM236 1303h477l-212 -195h-86z" />
<glyph unicode="\" horiz-adv-x="1005" d="M162 1372l261 -69l210 -422l-60 -166l-96 26zM570 551l35 99l164 -43l207 -419l-95 -266z" />
<glyph unicode="]" horiz-adv-x="642" d="M43 0l212 194h88l176 -194h-476zM156 1303h477l-210 -195h-88zM382 231l22 262l134 121l65 -72l-43 -505zM432 810l22 262l213 194l-43 -505l-80 -74z" />
<glyph unicode="^" horiz-adv-x="949" d="M158 802l11 138l393 363l-24 -275l-244 -226h-136zM588 1028l25 275l331 -363l-11 -138h-138z" />
<glyph unicode="_" horiz-adv-x="964" d="M-22 -251l106 96h771l87 -96l-104 -97h-771z" />
<glyph unicode="`" horiz-adv-x="495" d="M197 1247l174 99l132 -264l-47 -132l-130 35z" />
<glyph unicode="a" d="M108 0l47 542l80 72l109 -121l-26 -299zM175 761l43 505l177 -194l-23 -262l-132 -123zM259 1303h752l-210 -195h-365zM276 652l104 96h413l90 -96l-107 -97h-413zM756 194l26 299l132 121l65 -72l-46 -542zM810 810l22 262l211 194l-43 -505l-80 -74z" />
<glyph unicode="b" d="M112 37l43 505l80 72l109 -121l-22 -262zM145 0l211 194h365l89 -97l-106 -97h-559zM175 761l43 505l177 -194l-23 -262l-132 -123zM259 1303h558l90 -97l-106 -98h-365zM276 652l104 96h413l90 -96l-107 -97h-413zM760 231l22 262l132 121l65 -72l-26 -311l-106 -97z M810 810l22 262l106 97l88 -97l-26 -311l-80 -74z" />
<glyph unicode="c" d="M128 231l88 -97l106 97l22 262l-109 121l-80 -72zM175 761l26 311l106 97l88 -97l-23 -262l-132 -123zM251 97l105 97h400l177 -194h-594zM348 1206l104 97h594l-210 -195h-400z" />
<glyph unicode="d" d="M112 37l43 505l80 72l109 -121l-22 -262zM145 0l211 194h365l89 -97l-106 -97h-559zM175 761l43 505l177 -194l-23 -262l-132 -123zM259 1303h558l90 -97l-106 -98h-365zM760 231l22 262l132 121l65 -72l-26 -311l-106 -97zM810 810l22 262l106 97l88 -97l-26 -311 l-80 -74z" />
<glyph unicode="e" d="M112 37l43 505l80 72l109 -121l-22 -262zM145 0l211 194h400l177 -194h-788zM175 761l43 505l177 -194l-23 -262l-132 -123zM259 1303h787l-210 -195h-400zM276 652l104 96h413l90 -96l-107 -97h-413z" />
<glyph unicode="f" d="M112 37l43 505l80 72l109 -121l-22 -262zM175 761l43 505l177 -194l-23 -262l-132 -123zM259 1303h787l-210 -195h-400zM276 652l104 96h413l90 -96l-107 -97h-413z" />
<glyph unicode="g" d="M128 231l30 339l78 72l110 -121l-24 -290l-106 -97zM177 788l24 284l106 97l88 -97l-21 -236l-130 -121zM251 97l88 -97h365l106 97l-89 97h-365zM348 1206l104 97h594l-210 -195h-400zM471 678l104 98h220l89 -98l-106 -97h-219zM760 231l24 290l132 121l67 -72 l-30 -339l-106 -97z" />
<glyph unicode="h" d="M108 0l47 542l80 72l109 -121l-26 -299zM175 761l47 542l176 -195l-26 -298l-132 -123zM276 652l104 96h413l90 -96l-107 -97h-413zM756 194l26 299l132 121l65 -72l-46 -542zM810 810l26 298l210 195l-46 -542l-80 -74z" />
<glyph unicode="i" horiz-adv-x="584" d="M212 194l26 299l133 121l65 -72l-47 -542zM266 810l26 298l211 195l-47 -542l-80 -74z" />
<glyph unicode="j" d="M128 231l88 -97l106 97l15 175l-110 123l-80 -75zM251 97l105 97h365l89 -97l-106 -97h-365zM760 231l22 262l132 121l65 -72l-26 -311l-106 -97zM810 810l26 298l210 195l-46 -542l-80 -74z" />
<glyph unicode="k" d="M108 0l47 542l80 72l109 -121l-26 -299zM175 761l47 542l176 -195l-26 -298l-132 -123zM276 652l104 96h413l90 -96l-107 -97h-413zM421 801l11 139l397 363h137l-11 -139l-396 -363h-138zM756 194l26 299l132 121l65 -72l-46 -542z" />
<glyph unicode="l" d="M112 37l43 505l80 72l109 -121l-22 -262zM145 0l211 194h400l177 -194h-788zM175 761l47 542l176 -195l-26 -298l-132 -123z" />
<glyph unicode="m" d="M108 0l47 542l80 72l109 -121l-26 -299zM175 761l43 505l177 -194l-23 -262l-132 -123zM259 1303h752l-210 -195h-365zM480 585l34 381l108 97l87 -97l-33 -381l-104 -99zM756 194l26 299l132 121l65 -72l-46 -542zM810 810l22 262l211 194l-43 -505l-80 -74z" />
<glyph unicode="n" d="M108 0l47 542l80 72l109 -121l-26 -299zM175 761l47 542l176 -195l-26 -298l-132 -123zM274 1303h283l229 -266l-13 -140h-138zM756 194l26 299l132 121l65 -72l-46 -542zM810 810l26 298l210 195l-46 -542l-80 -74z" />
<glyph unicode="o" d="M128 231l88 -97l106 97l22 262l-109 121l-80 -72zM175 761l26 311l106 97l88 -97l-23 -262l-132 -123zM251 97l105 97h365l89 -97l-106 -97h-365zM348 1206l104 97h365l90 -97l-106 -98h-365zM760 231l22 262l132 121l65 -72l-26 -311l-106 -97zM810 810l22 262l106 97 l88 -97l-26 -311l-80 -74z" />
<glyph unicode="p" d="M108 0l47 542l80 72l109 -121l-26 -299zM175 761l43 505l177 -194l-23 -262l-132 -123zM259 1303h558l90 -97l-106 -98h-365zM276 652l104 96h413l90 -96l-107 -97h-413zM810 810l22 262l106 97l88 -97l-26 -311l-80 -74z" />
<glyph unicode="q" d="M128 231l88 -97l106 97l24 288l-110 121l-78 -72zM177 788l24 284l106 97l88 -97l-21 -236l-130 -121zM251 97l105 97h190l89 -97l-106 -97h-190zM348 1206l104 97h365l90 -97l-106 -98h-365zM585 231l11 140h139l211 -231l-13 -140h-138zM775 406l9 113l132 121l67 -72 l-15 -162l-104 -97zM812 836l20 236l106 97l88 -97l-24 -284l-79 -73z" />
<glyph unicode="r" d="M108 0l47 542l80 72l109 -121l-26 -299zM175 761l43 505l177 -194l-23 -262l-132 -123zM259 1303h558l90 -97l-106 -98h-365zM276 652l104 96h413l90 -96l-107 -97h-413zM421 372l13 138h139l341 -370l-13 -140h-140zM810 810l22 262l106 97l88 -97l-26 -311l-80 -74z " />
<glyph unicode="s" d="M117 97l105 97h499l89 -97l-106 -97h-499zM175 761l26 311l106 97l88 -97l-23 -262l-132 -123zM276 652l104 96h413l90 -96l-107 -97h-413zM348 1206l104 97h498l89 -97l-106 -98h-497zM760 231l22 262l132 121l65 -72l-26 -311l-106 -97z" />
<glyph unicode="t" d="M171 1206l105 97h716l92 -97l-108 -98h-717zM432 89l35 404l133 121l65 -72l-39 -453l-105 -96zM495 810l13 149l106 97l88 -97l-17 -198l-80 -74z" />
<glyph unicode="u" d="M128 231l88 -97l106 97l22 262l-109 121l-80 -72zM175 761l47 542l176 -195l-26 -298l-132 -123zM251 97l105 97h365l89 -97l-106 -97h-365zM760 231l22 262l132 121l65 -72l-26 -311l-106 -97zM810 810l26 298l210 195l-46 -542l-80 -74z" />
<glyph unicode="v" horiz-adv-x="999" d="M115 93l41 469l80 73l110 -123l-37 -419l-104 -99zM177 780l45 523l176 -195l-24 -278l-132 -123zM371 93l13 138l376 370l156 34l-28 -171l-380 -371h-137zM812 830l24 278l210 195l-44 -523l-80 -73z" />
<glyph unicode="w" d="M112 37l43 505l80 72l109 -121l-22 -262zM145 0l211 194h365l176 -194h-752zM175 761l47 542l176 -195l-26 -298l-132 -123zM460 335l33 384l107 98l89 -98l-34 -384l-106 -97zM760 231l22 262l132 121l65 -72l-43 -505zM810 810l26 298l210 195l-46 -542l-80 -74z" />
<glyph unicode="x" horiz-adv-x="999" d="M108 0l17 190l316 424h99l-19 -214l-298 -400h-115zM205 1113l17 190h113l229 -402l-18 -214h-99zM594 402l19 212h98l239 -424l-17 -190h-112zM618 687l19 214l298 402h111l-16 -190l-313 -426h-99z" />
<glyph unicode="y" d="M175 761l65 -74l132 123l26 298l-176 195zM190 97l104 97h427l89 -97l-106 -97h-427zM276 652l104 96h413l90 -96l-107 -97h-413zM760 231l22 262l132 121l65 -72l-26 -311l-106 -97zM810 810l26 298l210 195l-46 -542l-80 -74z" />
<glyph unicode="z" d="M117 97l105 97h512l176 -194h-705zM222 1303h728l89 -97l-106 -98h-535zM225 238l11 134l202 261l104 9l7 -169l-178 -235h-146zM566 670l2 103l223 290h138l-13 -143l-175 -231z" />
<glyph unicode="{" horiz-adv-x="804" d="M101 652l106 96h95l89 -96l-106 -97h-95zM270 231l22 262l132 121l66 -72l-26 -311l-107 -97zM320 810l23 262l106 97l87 -97l-26 -311l-80 -74zM391 97l104 97h88l178 -194h-283zM488 1206l104 97h283l-212 -195h-88z" />
<glyph unicode="|" horiz-adv-x="646" d="M197 -348l144 1651h191l-143 -1651h-192z" />
<glyph unicode="}" horiz-adv-x="804" d="M43 0l212 194h88l89 -97l-106 -97h-283zM156 1303h283l90 -97l-106 -98h-88zM382 231l26 311l82 72l110 -121l-23 -262l-106 -97zM428 761l26 311l108 97l88 -97l-23 -262l-132 -123zM529 652l104 96h95l91 -96l-108 -97h-95z" />
<glyph unicode="~" horiz-adv-x="867" d="M130 484l15 177q43 43 85 62.5t88 19.5q73 0 190 -52q71 -32 132 -32q52 0 101.5 27t105.5 83l-17 -184q-32 -37 -86.5 -58.5t-121.5 -21.5q-65 0 -127 18q-15 6 -84 39q-48 24 -85 24q-39 0 -85 -23t-111 -79z" />
<glyph unicode="&#xad;" horiz-adv-x="962" d="M145 652l104 96h594l90 -96l-106 -97h-594z" />
<glyph unicode="&#x2000;" horiz-adv-x="799" />
<glyph unicode="&#x2001;" horiz-adv-x="1599" />
<glyph unicode="&#x2002;" horiz-adv-x="799" />
<glyph unicode="&#x2003;" horiz-adv-x="1599" />
<glyph unicode="&#x2004;" horiz-adv-x="533" />
<glyph unicode="&#x2005;" horiz-adv-x="399" />
<glyph unicode="&#x2006;" horiz-adv-x="266" />
<glyph unicode="&#x2007;" horiz-adv-x="266" />
<glyph unicode="&#x2008;" horiz-adv-x="199" />
<glyph unicode="&#x2009;" horiz-adv-x="319" />
<glyph unicode="&#x200a;" horiz-adv-x="88" />
<glyph unicode="&#x2010;" horiz-adv-x="962" d="M145 652l104 96h594l90 -96l-106 -97h-594z" />
<glyph unicode="&#x2011;" horiz-adv-x="962" d="M145 652l104 96h594l90 -96l-106 -97h-594z" />
<glyph unicode="&#x2012;" horiz-adv-x="962" d="M145 652l104 96h594l90 -96l-106 -97h-594z" />
<glyph unicode="&#x2013;" horiz-adv-x="955" d="M143 614q0 25 2 38q13 162 138 276.5t285 114.5q155 0 257 -102.5t102 -253.5q0 -24 -2 -35q-15 -162 -138.5 -276.5t-287.5 -114.5q-151 0 -253.5 102t-102.5 251z" />
<glyph unicode="&#x2014;" horiz-adv-x="990" d="M54 652l76 69h849l65 -69l-78 -69h-849z" />
<glyph unicode="&#x2019;" horiz-adv-x="368" d="M169 946l25 260l104 97l89 -97l-24 -260h-194z" />
<glyph unicode="&#x201c;" horiz-adv-x="368" d="M179 1044l22 259h194l-23 -259l-106 -98z" />
<glyph unicode="&#x201d;" horiz-adv-x="633" d="M169 946l25 260l104 97l89 -97l-24 -260h-194zM432 946l24 260l106 97l90 -97l-25 -260h-195z" />
<glyph unicode="&#x2022;" horiz-adv-x="633" d="M179 1044l22 259h194l-23 -259l-106 -98zM441 1044l23 259h195l-22 -259l-106 -98z" />
<glyph unicode="&#x202f;" horiz-adv-x="319" />
<glyph unicode="&#x205f;" horiz-adv-x="399" />
<glyph unicode="&#x25fc;" horiz-adv-x="1303" d="M0 0v1303h1303v-1303h-1303z" />
</font>
</defs>
</svg>
