<?xml version="1.0" standalone="no"?>
<!--<!DOCTYPE svg PUBLIC "-//W3C//DTD SVG 1.1//EN" "http://www.w3.org/Graphics/SVG/1.1/DTD/svg11.dtd" >-->
<svg xmlns="http://www.w3.org/2000/svg" xmlns:xlink="http://www.w3.org/1999/xlink" version="1.1">
<metadata></metadata>
<defs>
<font id="ds-digitalitalic" horiz-adv-x="1003" >
<font-face units-per-em="2048" ascent="1638" descent="-410" />
<missing-glyph horiz-adv-x="484" />
<glyph horiz-adv-x="0" />
<glyph unicode="&#xd;" horiz-adv-x="484" />
<glyph unicode=" "  horiz-adv-x="484" />
<glyph unicode="&#x09;" horiz-adv-x="484" />
<glyph unicode="&#xa0;" horiz-adv-x="484" />
<glyph unicode="!" horiz-adv-x="534" d="M182 -166h140l13 140h-140zM212 166l32 372l95 88l48 -54l-48 -546zM264 765l36 399l151 139l-51 -573l-56 -52z" />
<glyph unicode="&#x22;" horiz-adv-x="569" d="M205 1059l20 244h140l-21 -244l-76 -69zM413 1059l21 244h139l-20 -244l-76 -69z" />
<glyph unicode="#" horiz-adv-x="1038" d="M67 490l74 69h148l65 -69l-77 -69h-147zM95 812l74 69h148l65 -69l-77 -69h-147zM281 179l21 216l76 69l63 -69l-20 -216l-75 -71zM318 586l12 131l76 69l63 -69l-11 -131l-76 -68zM346 907l19 218l76 70l64 -70l-19 -218l-76 -69zM406 490l74 69h88l63 -69l-74 -69h-88z M434 812l74 69h88l63 -69l-74 -69h-88zM560 179l21 216l74 69l64 -69l-21 -216l-74 -71zM598 586l11 131l74 69l64 -69l-6 -65l-6 -66l-76 -68zM626 907l18 218l75 70l63 -70l-19 -218l-76 -69zM683 490l75 69h149l63 -69l-74 -69h-149zM711 812l75 69h149l63 -69l-75 -69 h-148z" />
<glyph unicode="$" d="M117 69l77 71h547l61 -71l-74 -69h-547zM175 730l35 408l77 70l63 -70l-32 -373l-95 -87zM248 652l74 69h486l65 -69l-78 -69h-486zM315 1234l74 69h547l64 -69l-75 -70h-547zM413 -209l15 175h140l-15 -175l-76 -68zM549 1337l15 175l75 69l65 -69l-15 -175h-140z M769 166l32 372l95 88l46 -54l-35 -406l-77 -71z" />
<glyph unicode="%" horiz-adv-x="1238" d="M190 892l63 -67l77 67l22 259l-65 70l-75 -70zM276 795l76 71h149l61 -71l-74 -69h-149zM285 197l292 436l119 34l13 -71l-389 -589zM317 1247l74 69h149l63 -69l-76 -70h-149zM527 892l22 259l77 70l63 -70l-22 -259l-75 -67zM665 166l63 -67l76 67l23 258l-66 71 l-74 -71zM706 830l288 436l198 50l-393 -584l-73 -21zM750 69l79 71h147l61 -71l-74 -69h-148zM789 521l79 69h147l61 -69l-74 -70h-147zM1004 166l22 258l74 71l64 -71l-23 -258l-74 -67z" />
<glyph unicode="&#x26;" d="M127 166l35 406l56 54l80 -88l-32 -372l-78 -71zM175 730l35 408l77 70l63 -70l-32 -373l-95 -87zM212 69l77 71h452l61 -71l-74 -69h-452zM248 652l74 69h486l65 -69l-78 -69h-486zM315 1234l74 69h453l63 -69l-75 -70h-452zM769 166l32 372l95 88l46 -54l-35 -406 l-77 -71zM821 765l11 129l75 70l63 -70l-15 -164l-54 -52zM923 652l77 69l63 -69l-76 -69z" />
<glyph unicode="'" horiz-adv-x="361" d="M205 1059l20 244h140l-21 -244l-76 -69z" />
<glyph unicode="(" horiz-adv-x="657" d="M127 166l35 406l56 54l80 -88l-32 -372l-78 -71zM175 730l35 408l77 70l63 -70l-32 -373l-95 -87zM212 69l77 71h130l127 -140h-270zM315 1234l74 69h270l-151 -139h-130z" />
<glyph unicode=")" horiz-adv-x="657" d="M112 0l152 140h129l61 -71l-74 -69h-268zM225 1303h268l64 -69l-75 -70h-128zM421 166l31 372l95 88l49 -54l-36 -406l-78 -71zM473 765l32 373l76 70l63 -70l-35 -408l-56 -52z" />
<glyph unicode="*" horiz-adv-x="809" d="M181 793l35 97l101 54h139l-87 -127l-95 -48zM210 1134l99 26l86 -52l65 -123h-140l-91 54zM397 694l9 107l80 128l58 -123l-10 -112l-76 -68zM434 1125l9 109l75 69l63 -69l-9 -109l-80 -125zM519 951l64 -124l87 -58l97 24l-17 99l-91 59h-140zM521 989l86 123l99 48 l91 -26l-34 -95l-102 -50h-140z" />
<glyph unicode="+" horiz-adv-x="847" d="M169 652l75 69h147l65 -69l-78 -69h-147zM389 408l13 149l76 69l64 -69l-13 -149l-75 -69zM419 747l13 147l76 70l64 -70l-13 -147l-75 -69zM506 652l77 69h147l63 -69l-76 -69h-147z" />
<glyph unicode="," horiz-adv-x="361" d="M99 -147l26 287h139l-26 -287l-76 -69z" />
<glyph unicode="-" horiz-adv-x="847" d="M169 652l75 69h486l63 -69l-76 -69h-486z" />
<glyph unicode="." horiz-adv-x="361" d="M112 0l13 140h139l-13 -140h-139z" />
<glyph unicode="/" horiz-adv-x="942" d="M84 197l292 436l119 34l15 -71l-391 -589zM505 830l288 436l197 50l-392 -584l-73 -21z" />
<glyph unicode="0" d="M114 26l48 546l56 54l80 -88l-32 -372zM138 0l151 140h452l125 -140h-728zM175 730l48 547l127 -139l-32 -373l-95 -87zM251 1303h728l-149 -139h-452zM769 166l32 372l95 88l46 -54l-48 -546zM821 765l32 373l151 139l-49 -547l-54 -52z" />
<glyph unicode="1" horiz-adv-x="534" d="M212 166l32 372l95 88l48 -54l-48 -546zM264 765l32 373l153 139l-49 -547l-56 -52z" />
<glyph unicode="2" d="M114 26l48 546l56 54l80 -88l-32 -372zM138 0l151 140h452l125 -140h-728zM248 652l74 69h486l65 -69l-78 -69h-486zM251 1303h728l-149 -139h-452zM821 765l32 373l151 139l-49 -547l-54 -52z" />
<glyph unicode="3" d="M138 0l151 140h452l125 -140h-728zM248 652l74 69h486l65 -69l-78 -69h-486zM251 1303h728l-149 -139h-452zM769 166l32 372l95 88l46 -54l-48 -546zM821 765l32 373l151 139l-49 -547l-54 -52z" />
<glyph unicode="4" d="M175 730l48 547l127 -139l-32 -373l-95 -87zM248 652l74 69h486l65 -69l-78 -69h-486zM769 166l32 372l95 88l46 -54l-48 -546zM821 765l32 373l151 139l-49 -547l-54 -52z" />
<glyph unicode="5" d="M138 0l151 140h452l125 -140h-728zM175 730l48 547l127 -139l-32 -373l-95 -87zM248 652l74 69h486l65 -69l-78 -69h-486zM251 1303h728l-149 -139h-452zM769 166l32 372l95 88l46 -54l-48 -546z" />
<glyph unicode="6" d="M114 26l48 546l56 54l80 -88l-32 -372zM138 0l151 140h452l125 -140h-728zM175 730l48 547l127 -139l-32 -373l-95 -87zM248 652l74 69h486l65 -69l-78 -69h-486zM251 1303h728l-149 -139h-452zM769 166l32 372l95 88l46 -54l-48 -546z" />
<glyph unicode="7" d="M251 1303h728l-149 -139h-452zM769 166l32 372l95 88l46 -54l-48 -546zM821 765l32 373l151 139l-49 -547l-54 -52z" />
<glyph unicode="8" d="M114 26l48 546l56 54l80 -88l-32 -372zM138 0l151 140h452l125 -140h-728zM175 730l48 547l127 -139l-32 -373l-95 -87zM248 652l74 69h486l65 -69l-78 -69h-486zM251 1303h728l-149 -139h-452zM769 166l32 372l95 88l46 -54l-48 -546zM821 765l32 373l151 139l-49 -547 l-54 -52z" />
<glyph unicode="9" d="M138 0l151 140h452l125 -140h-728zM175 730l48 547l127 -139l-32 -373l-95 -87zM248 652l74 69h486l65 -69l-78 -69h-486zM251 1303h728l-149 -139h-452zM769 166l32 372l95 88l46 -54l-48 -546zM821 765l32 373l151 139l-49 -547l-54 -52z" />
<glyph unicode=":" horiz-adv-x="448" d="M155 0l13 140h139l-13 -140h-139zM236 946l13 139h140l-13 -139h-140z" />
<glyph unicode=";" horiz-adv-x="448" d="M141 -147l27 287h139l-26 -287l-74 -69zM236 946l13 139h140l-13 -139h-140z" />
<glyph unicode="&#x3c;" horiz-adv-x="737" d="M168 631h195l292 -318l-9 -97h-99zM169 670l455 417h98l-9 -98l-348 -319h-196z" />
<glyph unicode="=" horiz-adv-x="847" d="M156 512l75 71h486l63 -71l-74 -69h-486zM181 791l74 69h486l63 -69l-74 -70h-486z" />
<glyph unicode="&#x3e;" horiz-adv-x="737" d="M130 205l8 98l346 319h197l-452 -417h-99zM197 979l10 99h98l380 -419h-197z" />
<glyph unicode="?" d="M97 -166h139l13 140h-139zM114 26l48 546l56 54l80 -88l-32 -372zM225 1303h617l63 -69l-75 -70h-476zM248 652l74 69h486l65 -69l-78 -69h-486zM821 765l32 373l76 70l61 -70l-35 -408l-54 -52z" />
<glyph unicode="@" horiz-adv-x="1176" d="M127 166l35 406l56 54l80 -88l-32 -372l-78 -71zM175 730l35 408l77 70l63 -70l-32 -373l-95 -87zM212 69l77 71h722l61 -71l-74 -69h-722zM315 1234l74 69h763l-148 -139h-626zM324 443l32 356l55 52l81 -86l-28 -322l-77 -69zM410 348l76 69h452l125 -140h-590z M439 877l75 69h486l65 -69l-76 -69h-486zM966 443l28 322l95 86l49 -52l-45 -496zM1015 990l11 148l153 139l-28 -322l-58 -52z" />
<glyph unicode="A" d="M112 0l50 572l56 54l80 -88l-34 -398zM175 730l48 547l127 -139l-32 -373l-95 -87zM248 652l74 69h486l65 -69l-78 -69h-486zM251 1303h728l-149 -139h-452zM767 140l34 398l95 88l46 -54l-50 -572zM821 765l32 373l151 139l-49 -547l-54 -52z" />
<glyph unicode="B" d="M114 26l48 546l56 54l80 -88l-32 -372zM138 0l151 140h452l61 -71l-74 -69h-590zM175 730l48 547l127 -139l-32 -373l-95 -87zM248 652l74 69h486l65 -69l-78 -69h-486zM251 1303h591l63 -69l-75 -70h-452zM769 166l32 372l95 88l46 -54l-35 -406l-77 -71zM821 765 l32 373l76 70l61 -70l-35 -408l-54 -52z" />
<glyph unicode="C" d="M127 166l35 406l56 54l80 -88l-32 -372l-78 -71zM175 730l35 408l77 70l63 -70l-32 -373l-95 -87zM212 69l77 71h478l125 -140h-616zM315 1234l74 69h616l-149 -139h-478z" />
<glyph unicode="D" d="M114 26l48 546l56 54l80 -88l-32 -372zM138 0l151 140h452l61 -71l-74 -69h-590zM175 730l48 547l127 -139l-32 -373l-95 -87zM251 1303h591l63 -69l-75 -70h-452zM769 166l32 372l95 88l46 -54l-35 -406l-77 -71zM821 765l32 373l76 70l61 -70l-35 -408l-54 -52z" />
<glyph unicode="E" d="M114 26l48 546l56 54l80 -88l-32 -372zM138 0l151 140h478l125 -140h-754zM175 730l48 547l127 -139l-32 -373l-95 -87zM248 652l74 69h486l65 -69l-78 -69h-486zM251 1303h754l-149 -139h-478z" />
<glyph unicode="F" d="M114 26l48 546l56 54l80 -88l-32 -372zM175 730l48 547l127 -139l-32 -373l-95 -87zM248 652l74 69h486l65 -69l-78 -69h-486zM251 1303h754l-149 -139h-478z" />
<glyph unicode="G" d="M127 166l35 406l56 54l80 -88l-32 -372l-78 -71zM175 730l35 408l77 70l63 -70l-32 -373l-95 -87zM212 69l64 -69h452l74 69l-61 71h-452zM315 1234l74 69h590l-149 -139h-452zM577 652l75 69h156l65 -69l-78 -69h-156zM769 166l32 372l95 88l46 -54l-35 -406l-77 -71z " />
<glyph unicode="H" d="M112 0l50 572l56 54l80 -88l-34 -398zM175 730l50 573l129 -139l-36 -399l-95 -87zM248 652l74 69h486l65 -69l-78 -69h-486zM767 140l34 398l95 88l46 -54l-50 -572zM821 765l35 399l149 139l-50 -573l-54 -52z" />
<glyph unicode="I" horiz-adv-x="534" d="M203 69l41 469l95 88l48 -54l-44 -503l-77 -69zM264 765l41 469l75 69l65 -69l-45 -504l-56 -52z" />
<glyph unicode="J" d="M114 26l33 374l56 51l80 -86l-17 -199zM138 0l151 140h452l125 -140h-728zM769 166l32 372l95 88l46 -54l-48 -546zM821 765l35 399l149 139l-50 -573l-54 -52z" />
<glyph unicode="K" d="M112 0l50 572l56 54l80 -88l-34 -398zM175 730l50 573l129 -139l-36 -399l-95 -87zM248 652l74 69h486l65 -69l-78 -69h-486zM352 761l7 99l483 438h98l-9 -99l-480 -438h-99zM767 140l34 398l95 88l46 -54l-50 -572z" />
<glyph unicode="L" d="M114 26l48 546l56 54l80 -88l-32 -372zM138 0l151 140h478l125 -140h-754zM175 730l50 573l129 -139l-36 -399l-95 -87z" />
<glyph unicode="M" d="M112 0l50 572l56 54l80 -88l-34 -398zM175 730l48 547l127 -139l-32 -373l-95 -87zM251 1303h728l-149 -139h-452zM497 748l28 311l75 69l65 -69l-28 -311l-77 -70zM767 140l34 398l95 88l46 -54l-50 -572zM821 765l32 373l151 139l-49 -547l-54 -52z" />
<glyph unicode="N" d="M112 0l50 572l56 54l80 -88l-34 -398zM175 730l50 573l129 -139l-36 -399l-95 -87zM376 1063l9 101h99l309 -339l-9 -99h-99zM767 140l34 398l95 88l46 -54l-50 -572zM821 765l35 399l149 139l-50 -573l-54 -52z" />
<glyph unicode="O" d="M127 166l61 -71l78 71l32 372l-80 88l-56 -54zM175 730l35 408l77 70l63 -70l-32 -373l-95 -87zM212 69l77 71h452l61 -71l-74 -69h-452zM315 1234l74 69h453l63 -69l-75 -70h-452zM769 166l32 372l95 88l46 -54l-35 -406l-77 -71zM821 765l32 373l76 70l61 -70l-35 -408 l-54 -52z" />
<glyph unicode="P" d="M112 0l50 572l56 54l80 -88l-34 -398zM175 730l48 547l127 -139l-32 -373l-95 -87zM248 652l74 69h486l65 -69l-78 -69h-486zM251 1303h591l63 -69l-75 -70h-452zM821 765l32 373l76 70l61 -70l-35 -408l-54 -52z" />
<glyph unicode="Q" d="M127 166l61 -71l78 71l32 372l-80 88l-56 -54zM175 730l35 408l77 70l63 -70l-32 -373l-95 -87zM212 69l77 71h327l62 -71l-75 -69h-327zM315 1234l74 69h453l63 -69l-75 -70h-452zM644 166l8 98h98l151 -165l-9 -99h-99zM780 289l21 249l95 88l46 -54l-24 -283l-76 -69z M821 765l32 373l76 70l61 -70l-35 -408l-54 -52z" />
<glyph unicode="R" d="M112 0l50 572l56 54l80 -88l-34 -398zM175 730l48 547l127 -139l-32 -373l-95 -87zM248 652l74 69h486l65 -69l-78 -69h-486zM251 1303h591l63 -69l-75 -70h-452zM385 449l10 98h98l408 -448l-9 -99h-99zM821 765l32 373l76 70l61 -70l-35 -408l-54 -52z" />
<glyph unicode="S" d="M117 69l77 71h547l61 -71l-74 -69h-547zM175 730l35 408l77 70l63 -70l-32 -373l-95 -87zM248 652l74 69h486l65 -69l-78 -69h-486zM315 1234l74 69h547l64 -69l-75 -70h-547zM769 166l32 372l95 88l46 -54l-35 -406l-77 -71z" />
<glyph unicode="T" d="M225 1303h780l-149 -139h-502zM438 69l35 400l95 88l48 -52l-39 -436l-76 -69zM493 694l32 375l75 69l65 -69l-36 -410l-56 -50z" />
<glyph unicode="U" d="M127 166l61 -71l78 71l32 372l-80 88l-56 -54zM175 730l50 573l129 -139l-36 -399l-95 -87zM212 69l77 71h452l61 -71l-74 -69h-452zM769 166l32 372l95 88l46 -54l-35 -406l-77 -71zM821 765l35 399l149 139l-50 -573l-54 -52z" />
<glyph unicode="V" d="M117 69l64 -69l76 69l41 469l-80 88l-56 -54zM175 730l50 573l129 -139l-36 -399l-95 -87zM281 69l9 99l496 458l110 1l-19 -102l-497 -456h-99zM821 765l35 399l149 139l-50 -573l-54 -52z" />
<glyph unicode="W" d="M114 26l48 546l56 54l80 -88l-32 -372zM138 0l151 140h452l125 -140h-728zM175 730l50 573l129 -139l-36 -399l-95 -87zM452 242l28 313l75 71l65 -71l-28 -313l-76 -69zM769 166l32 372l95 88l46 -54l-48 -546zM821 765l35 399l149 139l-50 -573l-54 -52z" />
<glyph unicode="X" d="M112 0l11 136l337 490h69l-13 -153l-324 -473h-80zM214 1167l11 136h80l242 -473l-13 -152h-69zM570 473l13 153h69l251 -490l-11 -136h-80zM588 678l13 152l324 473h80l-11 -136l-335 -489h-71z" />
<glyph unicode="Y" d="M175 730l48 -52l95 87l36 399l-129 139zM212 69l77 71h452l61 -71l-74 -69h-452zM248 652l74 69h486l65 -69l-78 -69h-486zM769 166l32 372l95 88l46 -54l-35 -406l-77 -71zM821 765l35 399l149 139l-50 -573l-54 -52z" />
<glyph unicode="Z" d="M117 69l77 71h547l125 -140h-685zM127 173l9 97l311 356l76 7l6 -123l-300 -337h-102zM225 1303h711l64 -69l-75 -70h-571zM559 672v75l335 381h96l-9 -102l-300 -339z" />
<glyph unicode="[" horiz-adv-x="657" d="M114 26l48 546l56 54l80 -88l-32 -372zM138 0l151 140h130l127 -140h-408zM175 730l48 547l127 -139l-32 -373l-95 -87zM251 1303h408l-151 -139h-130z" />
<glyph unicode="\" horiz-adv-x="942" d="M182 1316l185 -50l216 -436l-45 -119l-69 21zM538 596l22 71l118 -34l214 -436l-69 -190z" />
<glyph unicode="]" horiz-adv-x="657" d="M112 0l152 140h129l126 -140h-407zM225 1303h408l-151 -139h-128zM421 166l31 372l95 88l49 -54l-49 -546zM473 765l32 373l152 139l-48 -547l-56 -52z" />
<glyph unicode="^" horiz-adv-x="916" d="M188 879l9 98l352 326l-17 -197l-247 -227h-97zM570 1106l16 197l304 -329l-9 -101h-97z" />
<glyph unicode="_" horiz-adv-x="828" d="M26 -277l75 68h590l65 -68l-76 -71h-591z" />
<glyph unicode="`" horiz-adv-x="463" d="M222 1247l124 69l103 -210l-34 -95l-91 26z" />
<glyph unicode="a" d="M112 0l50 572l56 54l80 -88l-34 -398zM175 730l48 547l127 -139l-32 -373l-95 -87zM248 652l74 69h486l65 -69l-78 -69h-486zM251 1303h728l-149 -139h-452zM767 140l34 398l95 88l46 -54l-50 -572zM821 765l32 373l151 139l-49 -547l-54 -52z" />
<glyph unicode="b" d="M114 26l48 546l56 54l80 -88l-32 -372zM138 0l151 140h452l61 -71l-74 -69h-590zM175 730l48 547l127 -139l-32 -373l-95 -87zM248 652l74 69h486l65 -69l-78 -69h-486zM251 1303h591l63 -69l-75 -70h-452zM769 166l32 372l95 88l46 -54l-35 -406l-77 -71zM821 765 l32 373l76 70l61 -70l-35 -408l-54 -52z" />
<glyph unicode="c" d="M127 166l35 406l56 54l80 -88l-32 -372l-78 -71zM175 730l35 408l77 70l63 -70l-32 -373l-95 -87zM212 69l77 71h478l125 -140h-616zM315 1234l74 69h616l-149 -139h-478z" />
<glyph unicode="d" d="M114 26l48 546l56 54l80 -88l-32 -372zM138 0l151 140h452l61 -71l-74 -69h-590zM175 730l48 547l127 -139l-32 -373l-95 -87zM251 1303h591l63 -69l-75 -70h-452zM769 166l32 372l95 88l46 -54l-35 -406l-77 -71zM821 765l32 373l76 70l61 -70l-35 -408l-54 -52z" />
<glyph unicode="e" d="M114 26l48 546l56 54l80 -88l-32 -372zM138 0l151 140h478l125 -140h-754zM175 730l48 547l127 -139l-32 -373l-95 -87zM248 652l74 69h486l65 -69l-78 -69h-486zM251 1303h754l-149 -139h-478z" />
<glyph unicode="f" d="M114 26l48 546l56 54l80 -88l-32 -372zM175 730l48 547l127 -139l-32 -373l-95 -87zM248 652l74 69h486l65 -69l-78 -69h-486zM251 1303h754l-149 -139h-478z" />
<glyph unicode="g" d="M127 166l35 406l56 54l80 -88l-32 -372l-78 -71zM175 730l35 408l77 70l63 -70l-32 -373l-95 -87zM212 69l64 -69h452l74 69l-61 71h-452zM315 1234l74 69h590l-149 -139h-452zM577 652l75 69h156l65 -69l-78 -69h-156zM769 166l32 372l95 88l46 -54l-35 -406l-77 -71z " />
<glyph unicode="h" d="M112 0l50 572l56 54l80 -88l-34 -398zM175 730l50 573l129 -139l-36 -399l-95 -87zM248 652l74 69h486l65 -69l-78 -69h-486zM767 140l34 398l95 88l46 -54l-50 -572zM821 765l35 399l149 139l-50 -573l-54 -52z" />
<glyph unicode="i" horiz-adv-x="534" d="M203 69l41 469l95 88l48 -54l-44 -503l-77 -69zM264 765l41 469l75 69l65 -69l-45 -504l-56 -52z" />
<glyph unicode="j" d="M114 26l33 374l56 51l80 -86l-17 -199zM138 0l151 140h452l125 -140h-728zM769 166l32 372l95 88l46 -54l-48 -546zM821 765l35 399l149 139l-50 -573l-54 -52z" />
<glyph unicode="k" d="M112 0l50 572l56 54l80 -88l-34 -398zM175 730l50 573l129 -139l-36 -399l-95 -87zM248 652l74 69h486l65 -69l-78 -69h-486zM352 761l7 99l483 438h98l-9 -99l-480 -438h-99zM767 140l34 398l95 88l46 -54l-50 -572z" />
<glyph unicode="l" d="M114 26l48 546l56 54l80 -88l-32 -372zM138 0l151 140h478l125 -140h-754zM175 730l50 573l129 -139l-36 -399l-95 -87z" />
<glyph unicode="m" d="M112 0l50 572l56 54l80 -88l-34 -398zM175 730l48 547l127 -139l-32 -373l-95 -87zM251 1303h728l-149 -139h-452zM497 748l28 311l75 69l65 -69l-28 -311l-77 -70zM767 140l34 398l95 88l46 -54l-50 -572zM821 765l32 373l151 139l-49 -547l-54 -52z" />
<glyph unicode="n" d="M112 0l50 572l56 54l80 -88l-34 -398zM175 730l50 573l129 -139l-36 -399l-95 -87zM376 1063l9 101h99l309 -339l-9 -99h-99zM767 140l34 398l95 88l46 -54l-50 -572zM821 765l35 399l149 139l-50 -573l-54 -52z" />
<glyph unicode="o" d="M127 166l61 -71l78 71l32 372l-80 88l-56 -54zM175 730l35 408l77 70l63 -70l-32 -373l-95 -87zM212 69l77 71h452l61 -71l-74 -69h-452zM315 1234l74 69h453l63 -69l-75 -70h-452zM769 166l32 372l95 88l46 -54l-35 -406l-77 -71zM821 765l32 373l76 70l61 -70l-35 -408 l-54 -52z" />
<glyph unicode="p" d="M112 0l50 572l56 54l80 -88l-34 -398zM175 730l48 547l127 -139l-32 -373l-95 -87zM248 652l74 69h486l65 -69l-78 -69h-486zM251 1303h591l63 -69l-75 -70h-452zM821 765l32 373l76 70l61 -70l-35 -408l-54 -52z" />
<glyph unicode="q" d="M127 166l61 -71l78 71l32 372l-80 88l-56 -54zM175 730l35 408l77 70l63 -70l-32 -373l-95 -87zM212 69l77 71h327l62 -71l-75 -69h-327zM315 1234l74 69h453l63 -69l-75 -70h-452zM644 166l8 98h98l151 -165l-9 -99h-99zM780 289l21 249l95 88l46 -54l-24 -283l-76 -69z M821 765l32 373l76 70l61 -70l-35 -408l-54 -52z" />
<glyph unicode="r" d="M112 0l50 572l56 54l80 -88l-34 -398zM175 730l48 547l127 -139l-32 -373l-95 -87zM248 652l74 69h486l65 -69l-78 -69h-486zM251 1303h591l63 -69l-75 -70h-452zM385 449l10 98h98l408 -448l-9 -99h-99zM821 765l32 373l76 70l61 -70l-35 -408l-54 -52z" />
<glyph unicode="s" d="M117 69l77 71h547l61 -71l-74 -69h-547zM175 730l35 408l77 70l63 -70l-32 -373l-95 -87zM248 652l74 69h486l65 -69l-78 -69h-486zM315 1234l74 69h547l64 -69l-75 -70h-547zM769 166l32 372l95 88l46 -54l-35 -406l-77 -71z" />
<glyph unicode="t" d="M225 1303h780l-149 -139h-502zM438 69l35 400l95 88l48 -52l-39 -436l-76 -69zM493 694l32 375l75 69l65 -69l-36 -410l-56 -50z" />
<glyph unicode="u" d="M127 166l61 -71l78 71l32 372l-80 88l-56 -54zM175 730l50 573l129 -139l-36 -399l-95 -87zM212 69l77 71h452l61 -71l-74 -69h-452zM769 166l32 372l95 88l46 -54l-35 -406l-77 -71zM821 765l35 399l149 139l-50 -573l-54 -52z" />
<glyph unicode="v" d="M117 69l64 -69l76 69l41 469l-80 88l-56 -54zM175 730l50 573l129 -139l-36 -399l-95 -87zM281 69l9 99l496 458l110 1l-19 -102l-497 -456h-99zM821 765l35 399l149 139l-50 -573l-54 -52z" />
<glyph unicode="w" d="M114 26l48 546l56 54l80 -88l-32 -372zM138 0l151 140h452l125 -140h-728zM175 730l50 573l129 -139l-36 -399l-95 -87zM452 242l28 313l75 71l65 -71l-28 -313l-76 -69zM769 166l32 372l95 88l46 -54l-48 -546zM821 765l35 399l149 139l-50 -573l-54 -52z" />
<glyph unicode="x" d="M112 0l11 136l337 490h69l-13 -153l-324 -473h-80zM214 1167l11 136h80l242 -473l-13 -152h-69zM570 473l13 153h69l251 -490l-11 -136h-80zM588 678l13 152l324 473h80l-11 -136l-335 -489h-71z" />
<glyph unicode="y" d="M175 730l48 -52l95 87l36 399l-129 139zM212 69l77 71h452l61 -71l-74 -69h-452zM248 652l74 69h486l65 -69l-78 -69h-486zM769 166l32 372l95 88l46 -54l-35 -406l-77 -71zM821 765l35 399l149 139l-50 -573l-54 -52z" />
<glyph unicode="z" d="M117 69l77 71h547l125 -140h-685zM127 173l9 97l311 356l76 7l6 -123l-300 -337h-102zM225 1303h711l64 -69l-75 -70h-571zM559 672v75l335 381h96l-9 -102l-300 -339z" />
<glyph unicode="{" horiz-adv-x="778" d="M125 652l76 69h129l65 -69l-78 -69h-129zM290 166l32 372l95 88l48 -54l-35 -406l-76 -71zM343 765l31 373l78 70l62 -70l-36 -408l-55 -52zM378 69l76 71h88l125 -140h-226zM480 1234l75 69h225l-149 -139h-87z" />
<glyph unicode="|" horiz-adv-x="510" d="M158 -348l144 1651h136l-144 -1651h-136z" />
<glyph unicode="}" horiz-adv-x="778" d="M112 0l152 140h86l61 -71l-74 -69h-225zM225 1303h226l63 -69l-75 -70h-85zM378 166l35 406l56 54l78 -88l-31 -372l-77 -71zM426 730l36 408l76 70l62 -70l-32 -373l-93 -87zM499 652l74 69h131l63 -69l-76 -69h-131z" />
<glyph unicode="~" horiz-adv-x="916" d="M155 484l14 177q43 43 85 62.5t89 19.5q73 0 189 -52q71 -32 133 -32q52 0 101 27t105 83l-16 -184q-32 -37 -87 -58.5t-122 -21.5q-65 0 -127 18q-15 6 -83 39q-48 24 -86 24q-39 0 -84.5 -23t-110.5 -79z" />
<glyph unicode="&#xad;" horiz-adv-x="847" d="M169 652l75 69h486l63 -69l-76 -69h-486z" />
<glyph unicode="&#x2000;" horiz-adv-x="790" />
<glyph unicode="&#x2001;" horiz-adv-x="1581" />
<glyph unicode="&#x2002;" horiz-adv-x="790" />
<glyph unicode="&#x2003;" horiz-adv-x="1581" />
<glyph unicode="&#x2004;" horiz-adv-x="527" />
<glyph unicode="&#x2005;" horiz-adv-x="395" />
<glyph unicode="&#x2006;" horiz-adv-x="263" />
<glyph unicode="&#x2007;" horiz-adv-x="263" />
<glyph unicode="&#x2008;" horiz-adv-x="197" />
<glyph unicode="&#x2009;" horiz-adv-x="316" />
<glyph unicode="&#x200a;" horiz-adv-x="87" />
<glyph unicode="&#x2010;" horiz-adv-x="847" d="M169 652l75 69h486l63 -69l-76 -69h-486z" />
<glyph unicode="&#x2011;" horiz-adv-x="847" d="M169 652l75 69h486l63 -69l-76 -69h-486z" />
<glyph unicode="&#x2012;" horiz-adv-x="847" d="M169 652l75 69h486l63 -69l-76 -69h-486z" />
<glyph unicode="&#x2013;" horiz-adv-x="1038" d="M78 652l77 69h849l65 -69l-79 -69h-849z" />
<glyph unicode="&#x2014;" horiz-adv-x="1826" d="M78 652l77 69h1642l63 -69l-76 -69h-1643z" />
<glyph unicode="&#x2018;" horiz-adv-x="361" d="M199 990l21 244l74 69l65 -69l-20 -244h-140z" />
<glyph unicode="&#x2019;" horiz-adv-x="361" d="M205 1059l20 244h140l-21 -244l-76 -69z" />
<glyph unicode="&#x201c;" horiz-adv-x="569" d="M199 990l21 244l74 69l65 -69l-20 -244h-140zM408 990l20 244l75 69l65 -69l-21 -244h-139z" />
<glyph unicode="&#x201d;" horiz-adv-x="569" d="M205 1059l20 244h140l-21 -244l-76 -69zM413 1059l21 244h139l-20 -244l-76 -69z" />
<glyph unicode="&#x2022;" d="M168 614q-1 25 1 38q13 162 138 276.5t285 114.5q155 0 257 -102.5t102 -253.5q0 -24 -1 -35q-15 -162 -139 -276.5t-288 -114.5q-151 0 -253 102t-102 251z" />
<glyph unicode="&#x202f;" horiz-adv-x="316" />
<glyph unicode="&#x205f;" horiz-adv-x="395" />
<glyph unicode="&#x25fc;" horiz-adv-x="1303" d="M0 0v1303h1303v-1303h-1303z" />
</font>
</defs>
</svg>
