<?xml version="1.0" standalone="no"?>
<!--<!DOCTYPE svg PUBLIC "-//W3C//DTD SVG 1.1//EN" "http://www.w3.org/Graphics/SVG/1.1/DTD/svg11.dtd" >-->
<svg xmlns="http://www.w3.org/2000/svg" xmlns:xlink="http://www.w3.org/1999/xlink" version="1.1">
<metadata></metadata>
<defs>
<font id="ds-digitalnormal" horiz-adv-x="1003" >
<font-face units-per-em="2048" ascent="1638" descent="-410" />
<missing-glyph horiz-adv-x="484" />
<glyph horiz-adv-x="0" />
<glyph unicode="&#xd;" horiz-adv-x="484" />
<glyph unicode=" "  horiz-adv-x="484" />
<glyph unicode="&#x09;" horiz-adv-x="484" />
<glyph unicode="&#xa0;" horiz-adv-x="484" />
<glyph unicode="!" horiz-adv-x="534" d="M197 -26v-140h140v140h-140zM197 166v372l88 88l52 -54v-546zM197 765v399l140 139v-573l-52 -52z" />
<glyph unicode="&#x22;" horiz-adv-x="569" d="M112 1059v244h139v-244l-70 -69zM320 1059v244h140v-244l-71 -69z" />
<glyph unicode="#" horiz-adv-x="1038" d="M24 490l69 69h147l71 -69l-71 -69h-147zM24 812l69 69h147l71 -69l-71 -69h-147zM266 179v216l71 69l69 -69v-216l-69 -71zM266 586v131l71 69l69 -69v-131l-69 -68zM266 907v218l71 70l69 -70v-218l-69 -69zM363 490l69 69h87l69 -69l-69 -69h-87zM363 812l69 69h87 l69 -69l-69 -69h-87zM546 179v216l68 69l69 -69v-216l-69 -71zM546 586v131l68 69l69 -69v-65v-66l-69 -68zM546 907v218l68 70l69 -70v-218l-69 -69zM640 490l69 69h149l69 -69l-69 -69h-149zM640 812l69 69h149l69 -69l-69 -69h-149z" />
<glyph unicode="$" d="M112 69l69 71h547l69 -71l-69 -69h-547zM112 730v408l69 70l70 -70v-373l-87 -87zM190 652l69 69h486l70 -69l-70 -69h-486zM207 1234l69 69h547l69 -69l-69 -70h-547zM432 -34h140v-175l-71 -68l-69 68v175zM432 1337v175l69 69l71 -69v-175h-140zM754 166v372l88 88 l50 -54v-406l-69 -71z" />
<glyph unicode="%" horiz-adv-x="1238" d="M112 892l69 -67l70 67v259l-70 70l-69 -70v-259zM207 795l69 71h148l69 -71l-69 -69h-148zM207 1247l69 69h148l69 -69l-69 -70h-148zM268 197l253 436l118 34l18 -71l-337 -589zM449 892v259l70 70l69 -70v-259l-69 -67zM633 830l251 436l192 50l-341 -584l-70 -21z M650 166l69 -67l70 67v258l-70 71l-69 -71v-258zM745 69l70 71h148l68 -71l-68 -69h-148zM745 521l70 69h148l68 -69l-68 -70h-148zM989 166v258l69 71l68 -71v-258l-68 -67z" />
<glyph unicode="&#x26;" d="M112 166v406l52 54l87 -88v-372l-70 -71zM112 730v408l69 70l70 -70v-373l-87 -87zM190 652l69 69h486l70 -69l-70 -69h-486zM207 69l69 71h452l69 -71l-69 -69h-452zM207 1234l69 69h452l69 -69l-69 -70h-452zM754 166v372l88 88l50 -54v-406l-69 -71zM754 765v129 l69 70l69 -70v-164l-50 -52zM866 652l70 69l69 -69l-69 -69z" />
<glyph unicode="'" horiz-adv-x="361" d="M112 1059v244h139v-244l-70 -69z" />
<glyph unicode="(" horiz-adv-x="657" d="M112 166v406l52 54l87 -88v-372l-70 -71zM112 730v408l69 70l70 -70v-373l-87 -87zM207 69l69 71h130l140 -140h-270zM207 1234l69 69h270l-140 -139h-130z" />
<glyph unicode=")" horiz-adv-x="657" d="M112 0l139 140h129l69 -71l-69 -69h-268zM112 1303h268l69 -69l-69 -70h-129zM406 166v372l87 88l53 -54v-406l-71 -71zM406 765v373l69 70l71 -70v-408l-53 -52z" />
<glyph unicode="*" horiz-adv-x="809" d="M112 793l26 97l97 54h139l-76 -127l-91 -48zM112 1134l95 26l91 -52l76 -123h-139l-97 54zM335 694v107l69 128l69 -123v-112l-69 -68zM335 1125v109l69 69l69 -69v-109l-69 -125zM436 951l74 -124l93 -58l95 24l-26 99l-97 59h-139zM436 989l74 123l93 48l95 -26 l-26 -95l-97 -50h-139z" />
<glyph unicode="+" horiz-adv-x="847" d="M112 652l69 69h147l70 -69l-70 -69h-147zM354 408v149l70 69l69 -69v-149l-69 -69zM354 747v147l70 70l69 -70v-147l-69 -69zM449 652l70 69h148l68 -69l-68 -69h-148z" />
<glyph unicode="," horiz-adv-x="361" d="M112 140h139v-287l-70 -69l-69 69v287z" />
<glyph unicode="-" horiz-adv-x="847" d="M112 652l69 69h486l68 -69l-68 -69h-486z" />
<glyph unicode="." horiz-adv-x="361" d="M112 0v140h139v-140h-139z" />
<glyph unicode="/" horiz-adv-x="942" d="M67 197l253 436l118 34l20 -71l-339 -589zM432 830l251 436l192 50l-341 -584l-70 -21z" />
<glyph unicode="0" d="M112 26v546l52 54l87 -88v-372zM112 730v547l139 -139v-373l-87 -87zM138 0l138 140h452l138 -140h-728zM138 1303h728l-138 -139h-452zM754 166v372l88 88l50 -54v-546zM754 765v373l138 139v-547l-50 -52z" />
<glyph unicode="1" horiz-adv-x="534" d="M197 166v372l88 88l52 -54v-546zM197 765v373l140 139v-547l-52 -52z" />
<glyph unicode="2" d="M112 26v546l52 54l87 -88v-372zM138 0l138 140h452l138 -140h-728zM138 1303h728l-138 -139h-452zM190 652l69 69h486l70 -69l-70 -69h-486zM754 765v373l138 139v-547l-50 -52z" />
<glyph unicode="3" d="M138 0l138 140h452l138 -140h-728zM138 1303h728l-138 -139h-452zM190 652l69 69h486l70 -69l-70 -69h-486zM754 166v372l88 88l50 -54v-546zM754 765v373l138 139v-547l-50 -52z" />
<glyph unicode="4" d="M112 730v547l139 -139v-373l-87 -87zM190 652l69 69h486l70 -69l-70 -69h-486zM754 166v372l88 88l50 -54v-546zM754 765v373l138 139v-547l-50 -52z" />
<glyph unicode="5" d="M112 730v547l139 -139v-373l-87 -87zM138 0l138 140h452l138 -140h-728zM138 1303h728l-138 -139h-452zM190 652l69 69h486l70 -69l-70 -69h-486zM754 166v372l88 88l50 -54v-546z" />
<glyph unicode="6" d="M112 26v546l52 54l87 -88v-372zM112 730v547l139 -139v-373l-87 -87zM138 0l138 140h452l138 -140h-728zM138 1303h728l-138 -139h-452zM190 652l69 69h486l70 -69l-70 -69h-486zM754 166v372l88 88l50 -54v-546z" />
<glyph unicode="7" d="M138 1303h728l-138 -139h-452zM754 166v372l88 88l50 -54v-546zM754 765v373l138 139v-547l-50 -52z" />
<glyph unicode="8" d="M112 26v546l52 54l87 -88v-372zM112 730v547l139 -139v-373l-87 -87zM138 0l138 140h452l138 -140h-728zM138 1303h728l-138 -139h-452zM190 652l69 69h486l70 -69l-70 -69h-486zM754 166v372l88 88l50 -54v-546zM754 765v373l138 139v-547l-50 -52z" />
<glyph unicode="9" d="M112 730v547l139 -139v-373l-87 -87zM138 0l138 140h452l138 -140h-728zM138 1303h728l-138 -139h-452zM190 652l69 69h486l70 -69l-70 -69h-486zM754 166v372l88 88l50 -54v-546zM754 765v373l138 139v-547l-50 -52z" />
<glyph unicode=":" horiz-adv-x="448" d="M155 0v140h139v-140h-139zM155 946v139h139v-139h-139z" />
<glyph unicode=";" horiz-adv-x="448" d="M155 140h139v-287l-69 -69l-70 69v287zM155 946v139h139v-139h-139z" />
<glyph unicode="&#x3c;" horiz-adv-x="737" d="M112 631h195l320 -318v-97h-98zM112 670l417 417h98v-98l-320 -319h-195z" />
<glyph unicode="=" horiz-adv-x="847" d="M112 512l69 71h486l68 -71l-68 -69h-486zM112 791l69 69h486l68 -69l-68 -70h-486z" />
<glyph unicode="&#x3e;" horiz-adv-x="737" d="M112 205v98l318 319h197l-417 -417h-98zM112 979v99h98l417 -419h-197z" />
<glyph unicode="?" d="M112 26v546l52 54l87 -88v-372zM112 -26v-140h139v140h-139zM112 1303h616l69 -69l-69 -70h-477zM190 652l69 69h486l70 -69l-70 -69h-486zM754 765v373l69 70l69 -70v-408l-50 -52z" />
<glyph unicode="@" horiz-adv-x="1176" d="M112 166v406l52 54l87 -88v-372l-70 -71zM112 730v408l69 70l70 -70v-373l-87 -87zM207 69l69 71h722l69 -71l-69 -69h-722zM207 1234l69 69h763l-138 -139h-625zM285 443v356l52 52l87 -86v-322l-70 -69zM363 877l69 69h486l71 -69l-71 -69h-486zM380 348l69 69h452 l138 -140h-590zM927 443v322l88 86l52 -52v-496zM927 990v148l140 139v-322l-52 -52z" />
<glyph unicode="A" d="M112 0v572l52 54l87 -88v-398zM112 730v547l139 -139v-373l-87 -87zM138 1303h728l-138 -139h-452zM190 652l69 69h486l70 -69l-70 -69h-486zM754 140v398l88 88l50 -54v-572zM754 765v373l138 139v-547l-50 -52z" />
<glyph unicode="B" d="M112 26v546l52 54l87 -88v-372zM112 730v547l139 -139v-373l-87 -87zM138 0l138 140h452l69 -71l-69 -69h-590zM138 1303h590l69 -69l-69 -70h-452zM190 652l69 69h486l70 -69l-70 -69h-486zM754 166v372l88 88l50 -54v-406l-69 -71zM754 765v373l69 70l69 -70v-408 l-50 -52z" />
<glyph unicode="C" d="M112 166v406l52 54l87 -88v-372l-70 -71zM112 730v408l69 70l70 -70v-373l-87 -87zM207 69l69 71h478l138 -140h-616zM207 1234l69 69h616l-138 -139h-478z" />
<glyph unicode="D" d="M112 26v546l52 54l87 -88v-372zM112 730v547l139 -139v-373l-87 -87zM138 0l138 140h452l69 -71l-69 -69h-590zM138 1303h590l69 -69l-69 -70h-452zM754 166v372l88 88l50 -54v-406l-69 -71zM754 765v373l69 70l69 -70v-408l-50 -52z" />
<glyph unicode="E" d="M112 26v546l52 54l87 -88v-372zM112 730v547l139 -139v-373l-87 -87zM138 0l138 140h478l138 -140h-754zM138 1303h754l-138 -139h-478zM190 652l69 69h486l70 -69l-70 -69h-486z" />
<glyph unicode="F" d="M112 26v546l52 54l87 -88v-372zM112 730v547l139 -139v-373l-87 -87zM138 1303h754l-138 -139h-478zM190 652l69 69h486l70 -69l-70 -69h-486z" />
<glyph unicode="G" d="M112 166v406l52 54l87 -88v-372l-70 -71zM112 730v408l69 70l70 -70v-373l-87 -87zM207 69l69 -69h452l69 69l-69 71h-452zM207 1234l69 69h590l-138 -139h-452zM519 652l69 69h157l70 -69l-70 -69h-157zM754 166v372l88 88l50 -54v-406l-69 -71z" />
<glyph unicode="H" d="M112 0v572l52 54l87 -88v-398zM112 730v573l139 -139v-399l-87 -87zM190 652l69 69h486l70 -69l-70 -69h-486zM754 140v398l88 88l50 -54v-572zM754 765v399l138 139v-573l-50 -52z" />
<glyph unicode="I" horiz-adv-x="534" d="M197 69v469l88 88l52 -54v-503l-71 -69zM197 765v469l69 69l71 -69v-504l-52 -52z" />
<glyph unicode="J" d="M112 26v374l52 51l87 -86v-199zM138 0l138 140h452l138 -140h-728zM754 166v372l88 88l50 -54v-546zM754 765v399l138 139v-573l-50 -52z" />
<glyph unicode="K" d="M112 0v572l52 54l87 -88v-398zM112 730v573l139 -139v-399l-87 -87zM190 652l69 69h486l70 -69l-70 -69h-486zM285 761v99l443 438h99v-99l-443 -438h-99zM754 140v398l88 88l50 -54v-572z" />
<glyph unicode="L" d="M112 26v546l52 54l87 -88v-372zM112 730v573l139 -139v-399l-87 -87zM138 0l138 140h478l138 -140h-754z" />
<glyph unicode="M" d="M112 0v572l52 54l87 -88v-398zM112 730v547l139 -139v-373l-87 -87zM138 1303h728l-138 -139h-452zM432 748v311l69 69l71 -69v-311l-71 -70zM754 140v398l88 88l50 -54v-572zM754 765v373l138 139v-547l-50 -52z" />
<glyph unicode="N" d="M112 0v572l52 54l87 -88v-398zM112 730v573l139 -139v-399l-87 -87zM283 1063v101h99l339 -339v-99h-99zM754 140v398l88 88l50 -54v-572zM754 765v399l138 139v-573l-50 -52z" />
<glyph unicode="O" d="M112 166l69 -71l70 71v372l-87 88l-52 -54v-406zM112 730v408l69 70l70 -70v-373l-87 -87zM207 69l69 71h452l69 -71l-69 -69h-452zM207 1234l69 69h452l69 -69l-69 -70h-452zM754 166v372l88 88l50 -54v-406l-69 -71zM754 765v373l69 70l69 -70v-408l-50 -52z" />
<glyph unicode="P" d="M112 0v572l52 54l87 -88v-398zM112 730v547l139 -139v-373l-87 -87zM138 1303h590l69 -69l-69 -70h-452zM190 652l69 69h486l70 -69l-70 -69h-486zM754 765v373l69 70l69 -70v-408l-50 -52z" />
<glyph unicode="Q" d="M112 166l69 -71l70 71v372l-87 88l-52 -54v-406zM112 730v408l69 70l70 -70v-373l-87 -87zM207 69l69 71h327l69 -71l-69 -69h-327zM207 1234l69 69h452l69 -69l-69 -70h-452zM629 166v98h99l164 -165v-99h-99zM754 289v249l88 88l50 -54v-283l-69 -69zM754 765v373 l69 70l69 -70v-408l-50 -52z" />
<glyph unicode="R" d="M112 0v572l52 54l87 -88v-398zM112 730v547l139 -139v-373l-87 -87zM138 1303h590l69 -69l-69 -70h-452zM190 652l69 69h486l70 -69l-70 -69h-486zM346 449v98h99l447 -448v-99h-99zM754 765v373l69 70l69 -70v-408l-50 -52z" />
<glyph unicode="S" d="M112 69l69 71h547l69 -71l-69 -69h-547zM112 730v408l69 70l70 -70v-373l-87 -87zM190 652l69 69h486l70 -69l-70 -69h-486zM207 1234l69 69h547l69 -69l-69 -70h-547zM754 166v372l88 88l50 -54v-406l-69 -71z" />
<glyph unicode="T" d="M112 1303h780l-138 -139h-503zM432 69v400l87 88l53 -52v-436l-71 -69zM432 694v375l69 69l71 -69v-410l-53 -50z" />
<glyph unicode="U" d="M112 166l69 -71l70 71v372l-87 88l-52 -54v-406zM112 730v573l139 -139v-399l-87 -87zM207 69l69 71h452l69 -71l-69 -69h-452zM754 166v372l88 88l50 -54v-406l-69 -71zM754 765v399l138 139v-573l-50 -52z" />
<glyph unicode="V" d="M112 69l69 -69l70 69v469l-87 88l-52 -54v-503zM112 730v573l139 -139v-399l-87 -87zM276 69v99l456 458l110 1l-12 -102l-456 -456h-98zM754 765v399l138 139v-573l-50 -52z" />
<glyph unicode="W" d="M112 26v546l52 54l87 -88v-372zM112 730v573l139 -139v-399l-87 -87zM138 0l138 140h452l138 -140h-728zM432 242v313l69 71l71 -71v-313l-71 -69zM754 166v372l88 88l50 -54v-546zM754 765v399l138 139v-573l-50 -52z" />
<glyph unicode="X" d="M112 0v136l294 490h69v-153l-283 -473h-80zM112 1167v136h80l283 -473v-152h-69zM529 473v153h69l294 -490v-136h-80zM529 678v152l283 473h80v-136l-292 -489h-71z" />
<glyph unicode="Y" d="M112 730l52 -52l87 87v399l-139 139v-573zM190 652l69 69h486l70 -69l-70 -69h-486zM207 69l69 71h452l69 -71l-69 -69h-452zM754 166v372l88 88l50 -54v-406l-69 -71zM754 765v399l138 139v-573l-50 -52z" />
<glyph unicode="Z" d="M112 69l69 71h547l138 -140h-685zM112 173v97l281 356l74 7l17 -123l-270 -337h-102zM112 1303h711l69 -69l-69 -70h-572zM493 747l302 381h97v-102l-270 -339l-123 -15z" />
<glyph unicode="[" horiz-adv-x="657" d="M112 26v546l52 54l87 -88v-372zM112 730v547l139 -139v-373l-87 -87zM138 0l138 140h130l140 -140h-408zM138 1303h408l-140 -139h-130z" />
<glyph unicode="\" horiz-adv-x="942" d="M67 1316l190 -50l253 -436l-33 -119l-71 21zM486 596l17 71l119 -34l253 -436l-52 -190z" />
<glyph unicode="]" horiz-adv-x="657" d="M112 0l139 140h129l139 -140h-407zM112 1303h407l-139 -139h-129zM406 166v372l87 88l53 -54v-546zM406 765v373l140 139v-547l-53 -52z" />
<glyph unicode="^" horiz-adv-x="916" d="M112 879v98l324 326v-197l-227 -227h-97zM473 1106v197l331 -329v-101h-97z" />
<glyph unicode="_" horiz-adv-x="828" d="M50 -277l69 68h590l71 -68l-71 -71h-590z" />
<glyph unicode="`" horiz-adv-x="463" d="M112 1247l119 69l121 -210l-26 -95l-93 26z" />
<glyph unicode="a" d="M112 0v572l52 54l87 -88v-398zM112 730v547l139 -139v-373l-87 -87zM138 1303h728l-138 -139h-452zM190 652l69 69h486l70 -69l-70 -69h-486zM754 140v398l88 88l50 -54v-572zM754 765v373l138 139v-547l-50 -52z" />
<glyph unicode="b" d="M112 26v546l52 54l87 -88v-372zM112 730v547l139 -139v-373l-87 -87zM138 0l138 140h452l69 -71l-69 -69h-590zM138 1303h590l69 -69l-69 -70h-452zM190 652l69 69h486l70 -69l-70 -69h-486zM754 166v372l88 88l50 -54v-406l-69 -71zM754 765v373l69 70l69 -70v-408 l-50 -52z" />
<glyph unicode="c" d="M112 166v406l52 54l87 -88v-372l-70 -71zM112 730v408l69 70l70 -70v-373l-87 -87zM207 69l69 71h478l138 -140h-616zM207 1234l69 69h616l-138 -139h-478z" />
<glyph unicode="d" d="M112 26v546l52 54l87 -88v-372zM112 730v547l139 -139v-373l-87 -87zM138 0l138 140h452l69 -71l-69 -69h-590zM138 1303h590l69 -69l-69 -70h-452zM754 166v372l88 88l50 -54v-406l-69 -71zM754 765v373l69 70l69 -70v-408l-50 -52z" />
<glyph unicode="e" d="M112 26v546l52 54l87 -88v-372zM112 730v547l139 -139v-373l-87 -87zM138 0l138 140h478l138 -140h-754zM138 1303h754l-138 -139h-478zM190 652l69 69h486l70 -69l-70 -69h-486z" />
<glyph unicode="f" d="M112 26v546l52 54l87 -88v-372zM112 730v547l139 -139v-373l-87 -87zM138 1303h754l-138 -139h-478zM190 652l69 69h486l70 -69l-70 -69h-486z" />
<glyph unicode="g" d="M112 166v406l52 54l87 -88v-372l-70 -71zM112 730v408l69 70l70 -70v-373l-87 -87zM207 69l69 -69h452l69 69l-69 71h-452zM207 1234l69 69h590l-138 -139h-452zM519 652l69 69h157l70 -69l-70 -69h-157zM754 166v372l88 88l50 -54v-406l-69 -71z" />
<glyph unicode="h" d="M112 0v572l52 54l87 -88v-398zM112 730v573l139 -139v-399l-87 -87zM190 652l69 69h486l70 -69l-70 -69h-486zM754 140v398l88 88l50 -54v-572zM754 765v399l138 139v-573l-50 -52z" />
<glyph unicode="i" horiz-adv-x="534" d="M197 69v469l88 88l52 -54v-503l-71 -69zM197 765v469l69 69l71 -69v-504l-52 -52z" />
<glyph unicode="j" d="M112 26v374l52 51l87 -86v-199zM138 0l138 140h452l138 -140h-728zM754 166v372l88 88l50 -54v-546zM754 765v399l138 139v-573l-50 -52z" />
<glyph unicode="k" d="M112 0v572l52 54l87 -88v-398zM112 730v573l139 -139v-399l-87 -87zM190 652l69 69h486l70 -69l-70 -69h-486zM285 761v99l443 438h99v-99l-443 -438h-99zM754 140v398l88 88l50 -54v-572z" />
<glyph unicode="l" d="M112 26v546l52 54l87 -88v-372zM112 730v573l139 -139v-399l-87 -87zM138 0l138 140h478l138 -140h-754z" />
<glyph unicode="m" d="M112 0v572l52 54l87 -88v-398zM112 730v547l139 -139v-373l-87 -87zM138 1303h728l-138 -139h-452zM432 748v311l69 69l71 -69v-311l-71 -70zM754 140v398l88 88l50 -54v-572zM754 765v373l138 139v-547l-50 -52z" />
<glyph unicode="n" d="M112 0v572l52 54l87 -88v-398zM112 730v573l139 -139v-399l-87 -87zM283 1063v101h99l339 -339v-99h-99zM754 140v398l88 88l50 -54v-572zM754 765v399l138 139v-573l-50 -52z" />
<glyph unicode="o" d="M112 166l69 -71l70 71v372l-87 88l-52 -54v-406zM112 730v408l69 70l70 -70v-373l-87 -87zM207 69l69 71h452l69 -71l-69 -69h-452zM207 1234l69 69h452l69 -69l-69 -70h-452zM754 166v372l88 88l50 -54v-406l-69 -71zM754 765v373l69 70l69 -70v-408l-50 -52z" />
<glyph unicode="p" d="M112 0v572l52 54l87 -88v-398zM112 730v547l139 -139v-373l-87 -87zM138 1303h590l69 -69l-69 -70h-452zM190 652l69 69h486l70 -69l-70 -69h-486zM754 765v373l69 70l69 -70v-408l-50 -52z" />
<glyph unicode="q" d="M112 166l69 -71l70 71v372l-87 88l-52 -54v-406zM112 730v408l69 70l70 -70v-373l-87 -87zM207 69l69 71h327l69 -71l-69 -69h-327zM207 1234l69 69h452l69 -69l-69 -70h-452zM629 166v98h99l164 -165v-99h-99zM754 289v249l88 88l50 -54v-283l-69 -69zM754 765v373 l69 70l69 -70v-408l-50 -52z" />
<glyph unicode="r" d="M112 0v572l52 54l87 -88v-398zM112 730v547l139 -139v-373l-87 -87zM138 1303h590l69 -69l-69 -70h-452zM190 652l69 69h486l70 -69l-70 -69h-486zM346 449v98h99l447 -448v-99h-99zM754 765v373l69 70l69 -70v-408l-50 -52z" />
<glyph unicode="s" d="M112 69l69 71h547l69 -71l-69 -69h-547zM112 730v408l69 70l70 -70v-373l-87 -87zM190 652l69 69h486l70 -69l-70 -69h-486zM207 1234l69 69h547l69 -69l-69 -70h-547zM754 166v372l88 88l50 -54v-406l-69 -71z" />
<glyph unicode="t" d="M112 1303h780l-138 -139h-503zM432 69v400l87 88l53 -52v-436l-71 -69zM432 694v375l69 69l71 -69v-410l-53 -50z" />
<glyph unicode="u" d="M112 166l69 -71l70 71v372l-87 88l-52 -54v-406zM112 730v573l139 -139v-399l-87 -87zM207 69l69 71h452l69 -71l-69 -69h-452zM754 166v372l88 88l50 -54v-406l-69 -71zM754 765v399l138 139v-573l-50 -52z" />
<glyph unicode="v" d="M112 69l69 -69l70 69v469l-87 88l-52 -54v-503zM112 730v573l139 -139v-399l-87 -87zM276 69v99l456 458l110 1l-12 -102l-456 -456h-98zM754 765v399l138 139v-573l-50 -52z" />
<glyph unicode="w" d="M112 26v546l52 54l87 -88v-372zM112 730v573l139 -139v-399l-87 -87zM138 0l138 140h452l138 -140h-728zM432 242v313l69 71l71 -71v-313l-71 -69zM754 166v372l88 88l50 -54v-546zM754 765v399l138 139v-573l-50 -52z" />
<glyph unicode="x" d="M112 0v136l294 490h69v-153l-283 -473h-80zM112 1167v136h80l283 -473v-152h-69zM529 473v153h69l294 -490v-136h-80zM529 678v152l283 473h80v-136l-292 -489h-71z" />
<glyph unicode="y" d="M112 730l52 -52l87 87v399l-139 139v-573zM190 652l69 69h486l70 -69l-70 -69h-486zM207 69l69 71h452l69 -71l-69 -69h-452zM754 166v372l88 88l50 -54v-406l-69 -71zM754 765v399l138 139v-573l-50 -52z" />
<glyph unicode="z" d="M112 69l69 71h547l138 -140h-685zM112 173v97l281 356l74 7l17 -123l-270 -337h-102zM112 1303h711l69 -69l-69 -70h-572zM493 747l302 381h97v-102l-270 -339l-123 -15z" />
<glyph unicode="{" horiz-adv-x="778" d="M67 652l71 69h128l71 -69l-71 -69h-128zM276 166v372l87 88l52 -54v-406l-69 -71zM276 765v373l70 70l69 -70v-408l-52 -52zM372 69l69 71h88l138 -140h-226zM372 1234l69 69h226l-138 -139h-88z" />
<glyph unicode="|" horiz-adv-x="510" d="M188 -348v1651h136v-1651h-136z" />
<glyph unicode="}" horiz-adv-x="778" d="M112 0l139 140h86l69 -71l-69 -69h-225zM112 1303h225l69 -69l-69 -70h-86zM363 166v406l52 54l86 -88v-372l-69 -71zM363 730v408l69 70l69 -70v-373l-86 -87zM441 652l69 69h130l69 -69l-69 -69h-130z" />
<glyph unicode="~" horiz-adv-x="916" d="M112 484v177q37 43 78 62.5t87 19.5q76 0 196 -52q74 -32 134 -32q52 0 98.5 27t98.5 83v-184q-60 -80 -203 -80q-34 0 -62.5 3.5t-56.5 12t-97 41.5q-50 24 -85 24q-41 0 -84.5 -22t-103.5 -80z" />
<glyph unicode="&#xad;" horiz-adv-x="847" d="M112 652l69 69h486l68 -69l-68 -69h-486z" />
<glyph unicode="&#x2000;" horiz-adv-x="790" />
<glyph unicode="&#x2001;" horiz-adv-x="1581" />
<glyph unicode="&#x2002;" horiz-adv-x="790" />
<glyph unicode="&#x2003;" horiz-adv-x="1581" />
<glyph unicode="&#x2004;" horiz-adv-x="527" />
<glyph unicode="&#x2005;" horiz-adv-x="395" />
<glyph unicode="&#x2006;" horiz-adv-x="263" />
<glyph unicode="&#x2007;" horiz-adv-x="263" />
<glyph unicode="&#x2008;" horiz-adv-x="197" />
<glyph unicode="&#x2009;" horiz-adv-x="316" />
<glyph unicode="&#x200a;" horiz-adv-x="87" />
<glyph unicode="&#x2010;" horiz-adv-x="847" d="M112 652l69 69h486l68 -69l-68 -69h-486z" />
<glyph unicode="&#x2011;" horiz-adv-x="847" d="M112 652l69 69h486l68 -69l-68 -69h-486z" />
<glyph unicode="&#x2012;" horiz-adv-x="847" d="M112 652l69 69h486l68 -69l-68 -69h-486z" />
<glyph unicode="&#x2013;" horiz-adv-x="1038" d="M20 652l71 69h849l71 -69l-71 -69h-849z" />
<glyph unicode="&#x2014;" horiz-adv-x="1826" d="M20 652l71 69h1642l69 -69l-69 -69h-1642z" />
<glyph unicode="&#x2018;" horiz-adv-x="361" d="M112 990v244l69 69l70 -69v-244h-139z" />
<glyph unicode="&#x2019;" horiz-adv-x="361" d="M112 1059v244h139v-244l-70 -69z" />
<glyph unicode="&#x201c;" horiz-adv-x="569" d="M112 990v244l69 69l70 -69v-244h-139zM320 990v244l69 69l71 -69v-244h-140z" />
<glyph unicode="&#x201d;" horiz-adv-x="569" d="M112 1059v244h139v-244l-70 -69zM320 1059v244h140v-244l-71 -69z" />
<glyph unicode="&#x2022;" d="M112 652q0 162 114.5 276.5t274.5 114.5q164 0 277.5 -114t113.5 -277q0 -162 -114.5 -276.5t-276.5 -114.5t-275.5 113.5t-113.5 277.5z" />
<glyph unicode="&#x202f;" horiz-adv-x="316" />
<glyph unicode="&#x205f;" horiz-adv-x="395" />
<glyph unicode="&#x25fc;" horiz-adv-x="1303" d="M0 0v1303h1303v-1303h-1303z" />
</font>
</defs>
</svg>
